Hummingbird - Redemption Identita Nascoste (2013) [BRrip - XviD -...

  • Category Movies
  • Type Divx/Xvid
  • Language English
  • Total size 1.6 GB
  • Uploaded By robbyrs
  • Downloads 839
  • Last checked 8 months ago
  • Date uploaded 4 years ago
  • Seeders 1
  • Leechers 0

Infohash : 9972633411B8B4E9681F3BD1F29773E67EC53AF2

Hummingbird - Redemption Identita Nascoste (2013) [BRrip - XviD - Italian English Ac3 5.1 - Sub Ita Eng] MIRCrew






NO FOUND ONLY ORIGINAL RELEASE




Dead In Tombstone (2013)








Titolo originale Hummingbird
Lingua originale inglese
Paese di produzione Stati Uniti, Regno Unito
Anno 2013
Durata 100 min
Colore colore
Audio sonoro
Rapporto 2,35 : 1
Genere azione, thriller
Regia Steven Knight
Sceneggiatura Steven Knight
Produttore Paul Webster, Guy Heeley, Andrew Warren (co-produttore)
Produttore esecutivo Stuart Ford, Brian Kavanaugh-Jones, Deepak Nayar, Joe Wright
Casa di produzione IM Global, Shoebox Films
Distribuzione (Italia) M2 Pictures, Moviemax
Fotografia Chris Menges
Montaggio Valerio Bonelli
Effetti speciali Mike Kelt (special effects supervisor)
Musiche Dario Marianelli
Scenografia Michael Carlin
Costumi Louise Stjernsward
Trucco Sarah Downes, Alex Joyce






Jason Statham: Joseph Smith/Joey Jones
Agata Buzek: Cristina
Vicky McClure: Dawn
Benedict Wong: Mr. Choy
Ger Ryan: Madre superiora
Youssef Kerkour: Bouzanis
Anthony Morris: Esattore
Victoria Bewick: Isabel
Christian Brassington: Max Forrester
Danny Webb: Damon




.

Joey Smith è un ex militare inglese delle forze speciali che operava in Afghanistan. Un giorno, durante un attentato, cinque soldati vengono uccisi in un blindato e lui, completamente accecato dall'ira decide di giustiziare per vendetta cinque afgani innocenti, ignorando i tentativi della popolazione di distoglierlo dai suoi intenti. Giudicato colpevole di crimine di guerra, è destinato a subire la Corte marziale ma riesce a fuggire al proprio destino durante il trasporto a Londra..................



Joseph Smith (Jason Statham) is an ex-Special Forces veteran who went AWOL from his unit in Afghanistan, and now lives as a homeless drunk in London. While fleeing thugs, he breaks into an apartment and discovers the owner, Damon, is travelling for months. He begins to assume the life of the owner, calling himself Joey Jones, and spends his time looking for Isabel (Victoria Bewick), from whom he was separated in the streets. He finds a credit card in the apartment mail, and starts to improve himself.............














[spoiler]

General
Complete name : Redemption Identita Nascoste (2013).ita.eng.sub.ita.MIRCrew\Redemption Identita Nascoste (2013).ita.eng.sub.ita.MIRCrew.avi
Format : AVI
Format/Info : Audio Video Interleave
File size : 1.65 GiB
Duration : 1h 40mn
Overall bit rate : 2 354 Kbps
Writing application : VirtualDubMod 1.5.4.1 (build 2178/release)
Writing library : VirtualDubMod build 2178/release

Video
ID : 0
Format : MPEG-4 Visual
Format profile : [email protected]
Format settings, BVOP : No
Format settings, QPel : No
Format settings, GMC : No warppoints
Format settings, Matrix : Default (H.263)
Codec ID : XVID
Codec ID/Hint : XviD
Duration : 1h 40mn
Bit rate : 1 444 Kbps
Width : 720 pixels
Height : 300 pixels
Display aspect ratio : 2.40:1
Frame rate : 24.000 fps
Color space : YUV
Chroma subsampling : 4:2:0
Bit depth : 8 bits
Scan type : Progressive
Compression mode : Lossy
Bits/(Pixel*Frame) : 0.279
Stream size : 1.01 GiB (61%)
Writing library : XviD 64

Audio #1
ID : 1
Format : AC-3
Format/Info : Audio Coding 3
Mode extension : CM (complete main)
Codec ID : 2000
Duration : 1h 40mn
Bit rate mode : Constant
Bit rate : 448 Kbps
Channel(s) : 6 channels
Channel positions : Front: L C R, Side: L R, LFE
Sampling rate : 48.0 KHz
Bit depth : 16 bits
Compression mode : Lossy
Stream size : 321 MiB (19%)
Alignment : Split accross interleaves
Interleave, duration : 42 ms (1.00 video frame)
Interleave, preload duration : 500 ms

Audio #2
ID : 2
Format : AC-3
Format/Info : Audio Coding 3
Mode extension : CM (complete main)
Codec ID : 2000
Duration : 1h 40mn
Bit rate mode : Constant
Bit rate : 448 Kbps
Channel(s) : 6 channels
Channel positions : Front: L C R, Side: L R, LFE
Sampling rate : 48.0 KHz
Bit depth : 16 bits
Compression mode : Lossy
Stream size : 321 MiB (19%)
Alignment : Split accross interleaves
Interleave, duration : 42 ms (1.00 video frame)
Interleave, preload duration : 500 ms




[/spoiler]

Files:

  • Redemption Identita Nascoste (2013).ita.eng.sub.ita.MIRCrew.avi (1.6 GB)
  • Redemption Identita Nascoste (2013).ita.eng.sub.ita.MIRCrew.ita.sub (58.1 KB)
  • Redemption Identita Nascoste (2013).ita.eng.sub.ita.MIRCrew.sub (0.4 KB)

There are currently no comments. Feel free to leave one :)

Code:

  • udp://open.demonii.com:1337/announce
  • http://tracker.openbittorrent.com:80/announce
  • udp://tracker.openbittorrent.com:80/announce
  • udp://tracker.publicbt.com:80/announce
  • http://genesis.1337x.org:1337/announce
  • http://exodus.desync.com/announce
  • http://exodus.desync.com:6969/announce
  • udp://tracker.istole.it:80/announce
  • http://tracker.blazing.de/announce
SitemapMalibu Shark Attack Duration: 88 min | Hitori no Shita | Physical geography